즐겨찾기 | 현재접속자 (131) | 최근게시물
총 게시물 1,539건, 최근 19 건
   

[한글] 쉰들러 리스트 Schindlers List 1993 1080p Bluray x265 10Bit AAC 5.1 - GetSchwifty

글쓴이 : 익명글쓴이 날짜 : 2017-09-13 (수) 19:48 조회 : 131
다운로드 : [한글] 쉰들러 리스트 Schindlers List 1993 1080p Bluray x265 10Bit AAC 5.1 - GetSchwifty (4.2G)
170911 170912 170913 마그넷, 감상, 쥬비디오, 다운

Source File:

Schindlers List 1993 1080p FRA BluRay AVC DTS-HD MA 5.1 - NOGROUP 



Media Information:


Code:

General 
Complete name : Schindlers List 1993 1080p Bluray x265 10Bit AAC 5.1 - GetSchwifty.mkv 
Format : Matroska 
Format version : Version 4 / Version 2 
File size : 6.91 GiB 
Duration : 3 h 15 min 
Overall bit rate : 5 071 kb/s 
Movie name : Schindlers List 
Encoded date : UTC 2017-09-12 02:44:04 

Video 
ID : 1 
Format : HEVC 
Format/Info : High Efficiency Video Coding 
Format profile : Main [email protected]@Main 
Codec ID : V_MPEGH/ISO/HEVC 
Duration : 3 h 15 min 
Bit rate : 4 631 kb/s 
Width : 1 920 pixels 
Height : 1 040 pixels 
Display aspect ratio : 1.85:1 
Frame rate mode : Constant 
Frame rate : 23.976 (24000/1001) FPS 
Color space : YUV 
Chroma subsampling : 4:2:0 
Bit depth : 10 bits 
Bits/(Pixel*Frame) : 0.097 
Stream size : 6.31 GiB (91%) 

Audio 
ID : 2 
Format : AAC 
Format/Info : Advanced Audio Codec 
Format profile : LC 
Codec ID : A_AAC 
Duration : 3 h 15 min 
Bit rate : 369 kb/s 
Channel(s) : 6 channels 
Channel positions : Front: L C R, Side: L R, LFE 
Sampling rate : 48.0 kHz 
Frame rate : 46.875 FPS (1024 SPF) 
Compression mode : Lossy 
Delay relative to video : 9 ms 
Stream size : 515 MiB (7%) 
Title : English AAC VBR 5.1 
Language : English 
Default : Yes 
Forced : No 

“왜 나는 더 많은 유태인들을 구해내지 못하였는가?”

1939년 9월 독일군의 폴란드 점령과 함께 오스카 쉰들러는 폴란드의 크레코우로 이주해온다. 기회주의자에 호색한인 쉰들러는 전쟁중 나치와 결탁해 임금을 줄 필요가 없는 유대인을 공장의 인력으로 이용한다. 이때 만난 유대인 회계사 아이작 스턴은 쉰들러의 내면에 숨어 있던 양심을 일깨워준다. 유대인들에 대한 박해가 심해지자 쉰들러는 그들을 강제수용소에서 구해내기로 결심한다. 수용소 장교에게 뇌물을 주고 유대인들을 자신의 고향으로 옮길 계획을 세운 쉰들러는 스턴과 함께 구출할 유대인 명단을 작성한다. 
[한글] 쉰들러 리스트 Schindlers List 1993 1080p Bluray x265 10Bit AAC 5.1 - GetSchwifty
[ 바로감상 ] [ 다운로드 ]

   

총 게시물 1,539건, 최근 19 건
번호 제목 날짜 조회
1539
19:48 1
1538
19:48 1
1537
19:48 1
1536
남루한 삶, 시시한 음악, 모두 버리고 두 번째 삶을 시작할거야어느 날 유튜브에서 접한 모차르트의 레퀴…
19:48 1
1535
19:48 1
1534
18:48 1
1533
18:48 1
1532
      홍콩    2000.01.15 개봉95분, 12세이상관람가    (감독) 마초성   …
18:48 1
1531
세상을 바꾸고 싶었던 한 남자, 그러나... 세상이 그를 바꾸려 한다미국 메이슨 시티의 곧고 신념 강한 재…
18:48 2
1530
18:48 1
1529
18:48 1
1528
18:48 1
1527
Not Rated | Drama | 12 September 2014 (Canada) Format : MatroskaFormat version : Version 4 / Version 2File size : 2.18 GiBDuration : 1 h 43…
12:48 14
1526
PG-13 | Animation, Comedy, Musical | 27 November 2002 (USA) Format                                   : Ma…
06:48 27
1525
1편, 인생 수업. 세계적으로 유명한 화가인 닉 놀티는 예술에 대한 정열과 그에게 냉담한 제자를 향한 육…
04:48 37
1524
과거 프랑스 왕실에는 쌍둥이가 태어나면 한명은 왕위를 계승하고 다른 한명은 철가면을 씌워 지하감옥…
04:48 33
1523
04:48 34
1522
04:48 31
1521
광활한 대륙의 스펙터클 무협 환타지!19세기 청조 말렵 혼란기의 중국. 당대 최고의 문파인 무당파의 마…
04:48 28
1520
09-21 33
 1  2  3  4  5  6  7  8  9  10  다음  맨끝